qtechnology.net

Home > Error While > Error While Opening Codec For Output Stream Total Video Converter Hatasi

Error While Opening Codec For Output Stream Total Video Converter Hatasi

Skip to content MSNX Menu and widgets Search for: Recent Posts Dfsr 5002 Error 9036 Dg834 Pid Errors Dhcp Server Error 1003 Dhcp Server Error 1059 Dhcp Server Error Xbox One Please upgrade to a supported browser.DismissFileEditViewToolsHelpAccessibilityDebugSee new changesAccessibilityView onlyToggle screen reader support Squall_9015-01-2010, 21:04Ecco l'immagine: http://img697.imageshack.us/img697/5817/analisigspot.jpg Styb15-01-2010, 22:46Non mi sembra ci sia nulla di strano; forse dovrai impostare nel tuo convertitore il framerate a 29.970 . A reboot may be needed. his comment is here

vistadan mı kaynaklanıyor onu da bilmiyorum. 3gp'yi bu programla nasıl mpeg yapabilirim. Any errors from level 20 to 25 are serious in nature …… Windows Error Codes (MSDN, http://msdn.microsoft.com/en-us/library/cc231196(v=prot.10).aspx) 1 Contents 2.1 HRESULT …… … 0.000000, bitrate: 217 kb/s Stream #0.0(eng): Audio: mp4a Your computers system data files and setting were not changed. During the Process Manager, it is possible to check out the two the operating applications as well as the background procedures.

Maybe I should disable two pass encoding when these aren't given. Log in or register to post comments Comment #8 Jorrit CreditAttribution: Jorrit commented September 27, 2012 at 6:38am Never mind. An incomplete installation, an incomplete uninstall, improper deletion of applications or hardware. Most serious issues in Windows 7 are caused by problems with the Windows Registry, device drivers, or Error While Opening Codec For Output Stream Total Video Converter Hatasi DLL documents.

Scan your computer for malware to guarantee buggy malicious software package isn't causing it to crash. System Restore returns your computer to the state that it was in before the restore point that you decide on. If your pc continues to blue display after this, you likely possess a hardware dilemma. Personal tools Namespaces Article Search Main Page Applications AOL Internet Explorer MS Outlook Outlook Express Windows Live DLL Errors Exe Errors Ocx Errors Operating Systems Windows 7 Windows Others Windows

Attempt testing your computer's memory for faults and checking its temperature to guarantee that it isn't overheating. So operate your antivirus program and scan for viruses on your computer. Compatibility: Windows 7, 8, Vista, XP Download Size: 6MB Requirements: 300 MHz Processor, 256 MB Ram, 22 MB HDD Limitations: This download is a free evaluation version. What causes Error While Opening Codec For Output Stream Total Video Converter Hatasi error?

Thanks in advance, B Comments Comment #1 blogook CreditAttribution: blogook commented September 9, 2012 at 3:23pm Setting the option , single pass encoding did the trick. It has been solved, see my previous message. Reinstall Home windows: Reinstalling Home windows is the nuclear option. Normally, the pc will start up as if nothing happened.

The error is with the video codec of the input file. Squall_9015-01-2010, 15:41Salve a tutti!!! It can also be caused if your computer is recovered from a virus or adware/spyware attack or by an improper shutdown of the computer. Scan your computer for malware to make sure buggy malicious application isn't causing it to crash.

Error While Opening Codec For Output Stream Total Video Converter Hatasi. I want to upload a MP4 and change it to FLV. The underside line for blue monitor glitches is your computer should have an mistake so major that it's going to just should crash and exhibit you the blue information on monitor. Give your disk drive some room by deleting these temporary data files including your net record and cookies.

Viruses and spy ware - these are incredibly common among downloaded materials. Log in or register to post comments Comment #9 osopolar CreditAttribution: osopolar commented September 28, 2012 at 11:41pm Status: Active » Closed (fixed) Thanks, I understand. Blue Screens of Death and other severe difficulties, like data corruption, can occur if you can find not enough free space in your primary partition used for the Home windows operating To store restore points, you need at least 300 MB of free space on each hard disk that has System Protection turned on.

For information about creating restore points, see Develop a restore stage. Hatirla Yeni Kayıt AnasayfaForum AnasayfasıDH Giriş Sayfası HakkımızdaİletişimForum KurallarıSık Sorulan SorularYönetim KadrosuReklam Ver DonanımHaber'de AraYENİ GELİŞMİŞ ARAMAForumBu Bölümde Ara Total video converter ile 3gp yi mpeg'e çevirme? 1Cevap0Favori2.669Tıklama Konuya Özel Seçkin x Bildirim X mesajınız kopyalandı (ctrl+v) yapıştırmak istediğiniz yere yapıştırabilirsiniz.

If you have Error While Opening Codec For Output Stream Total Video Converter Hatasi errors then we strongly recommend that you Download (Error While Opening Codec For Output Stream Total Video

I am using flowplayer to play the video. Output #0, flv, to '/tmp/1347827465-505637095e47c.flv': Stream #0.0: Video: flv, yuv420p, 640x360, q=2-31, pass 2, 200 kb/s, 90k tbn, 25 tbc Stream #0.1: Audio: libfaac, 22050 Hz, stereo, s16, 64 kb/s Stream K-lite kodec pack de yüklerseniz sanırım sorun düzelir.vefasız hedef kitle2012-11-09 17:39:36 OfflineErkekDediklerinizi yaptmıştım zaten ama3dinebandimOsman İbişDediklerinizi yaptmıştım zaten ama olmuyor.xilisoft video convertere yükledim.sorunsuz çalışıyor Yeşekkürler2012-11-09 17:48:01 OfflineErkekHerkse bir gün "xilisoft"ETezerErgin TEZERHerkes The operation completed successfully. 0x00000000 NERR_Success.

Note: This article was updated on 2016-11-15 and previously published under WIKI_Q210794 Contents 1.What is Error While Opening Codec For Output Stream Total Video Converter Hatasi error? 2.What causes Error While Disable unnecessary plans by clicking the disable button. Baka format veya ayarlarla convert edince sorun olmuyor . Alnt Yaparak Cevapla President Kullancnn Profilini Gster

Cevapla Bu konunun ksa yolunu aadaki sitelere ekleyebilirsiniz Facebook Google Squall_9015-01-2010, 20:24Nessuno mi sa aiutare??? :( Styb15-01-2010, 20:30Salve a tutti!!!

Teşekkürler2012-11-09 16:25:59 OfflineErkekQuick time yüklü değilsekajaxatakan şıkoğluQuick time yüklü değilse yükleyin. Click here follow the steps to fix Error While Opening Codec For Output Stream Total Video Converter Hatasi and related errors. Note, however the error was encountered on the second pass of the encoding process and the first pass appear to go fine. Tatil Ana Sayfa Copyright 2016 HomeSitemap Services Welcome Home » Software » Error While Opening Codec For Output Stream Total Video Converter Hatasi Error While Opening Codec For Output Stream

In the event you experience a blue screen, you can open the Action Center and check for solutions. Most Blue Screens of Loss Error While Opening Codec For Output Stream Total Video Converter Hatasi of life are components or driver related so updated drivers could repair the cause with I have tried changing it to almost every possibly bit rate setting but no success. Il messaggio ti spiega perch il programma non ti converte il filmato; che file ?

On Windows seven and newer versions of Windows, blue-screen information is also displayed in the Action Center. All the above actives may result in the deletion or corruption of the entries in the windows system files. Comment; … I dont want to download a new converter because I dont want my money to go to waste. In quale formato vorresti convertire il tuo file?

I guess you do not need the video anymore ... Quite possibly the most important Blue Display screen of Demise troubleshooting stage you can take is always to ask yourself what you just did. For information about creating restore points, see Error While Opening Codec For Output Stream Total Video Converter Hatasi Produce a restore level. This website should be used for informational purposes only.

Return components settings to default in Device Manager. Log in or register to post comments Comment #2 Jorrit CreditAttribution: Jorrit commented September 9, 2012 at 3:33pm Status: Active » Postponed (maintainer needs more info) Could you post the entire